#TITLE:Dancing Alove;
#SUBTITLE:Dead Master;
#ARTIST:Smile.dk;
#TITLETRANSLIT:;
#SUBTITLETRANSLIT:;
#ARTISTTRANSLIT:;
#CREDIT:;
#BANNER:bn.jpg;
#BACKGROUND:bg.jpg;
#LYRICSPATH:;
#CDTITLE:cd.png;
#MUSIC:Dancing Alove.mp3;
#OFFSET:-1.300;
#SAMPLESTART:43.967;
#SAMPLELENGTH:12.000;
#SELECTABLE:YES;
#BPMS:0.000=140.625;
#STOPS:;
#BGCHANGES:;
// cache tags:
#FIRSTBEAT:0.500;
#LASTBEAT:425.250;
#SONGFILENAME:Songs/Super Dancer Online/Dancing Alove (Smile.dk)/Dancing Alove.sm;
#HASMUSIC:1;
#HASBANNER:1;
#MUSICLENGTH:187.297;
// end cache tags

//---------------dance-single - ----------------
#NOTES:
     dance-single:
     :
     Hard:
     1:
     0.977,0.908,1.000,0.032,1.000,1007.000,268.000,6.000,0.000,0.000:
0000
0000
1000
0000
0000
1000
0000
0000
1000
0000
1000
0000
0000
0001
0000
0000
,
0100
0000
0010
1000
0000
0001
0000
0100
0000
0010
0000
1000
0000
0001
0100
0000
,
0000
1010
0000
0001
0000
0000
0100
0000
0010
1000
0000
0001
0000
0001
0000
0001
,
1000
0010
0000
0010
0000
0010
0100
0000
0100
0001
0001
0000
0001
1000
0000
0010
,
0010
0000
0100
0001
0001
0000
1000
0000
0010
0010
0000
0010
0000
0100
0001
0001
,
0000
1000
0010
0000
0010
0100
0001
0000
0001
1000
0000
0010
0000
0100
0001
0000
,
0000
0010
0000
0010
0100
0000
0001
0000
0001
0001
0000
0000
1000
0010
0010
0010
,
0000
0100
0000
0001
0001
0001
0000
1000
0010
0000
0010
0010
0000
0100
0100
0000
,
0001
0001
0000
0001
1000
0000
0010
0010
0010
0000
0100
0001
0000
0010
1000
0000
,
0101
0000
0110
0000
1001
0000
0000
0110
0001
1000
0010
0000
0000
0102
0100
0000
,
0003
0010
1000
1001
0000
0000
0010
0000
0010
0100
0101
0000
1000
0010
0000
0101
,
0000
0110
0000
1001
0000
0110
0000
1001
0000
0110
0000
0101
0000
0101
0000
1010
,
0000
0001
0000
0010
0000
0011
0000
0000
0010
0000
0000
0010
0100
0001
0000
0010
,
1000
0010
0100
0001
0100
0010
0100
0000
1001
0000
0110
0000
0101
0000
0010
0000
,
0000
0001
0000
0001
0000
0010
0000
0000
0010
0000
0100
0010
0000
1000
0001
0000
,
0010
0100
0010
0100
0001
0100
0010
0000
1001
0000
0010
0100
0001
0000
0100
0010
,
0000
1000
0001
0010
0000
0001
0000
0100
0010
0000
0010
1000
0001
0000
0000
0110
,
0000
0000
0001
0000
1000
0000
0010
0000
0010
0100
0001
0000
0100
0000
0010
0010
,
0000
1000
0001
0000
0000
0100
0010
0000
0010
0000
0010
0000
0010
0010
0000
0100
,
0001
0000
0100
0001
0000
1000
0000
0010
0010
0000
0100
0001
0000
0100
0000
0010
,
1000
0000
0010
0000
0010
0000
0100
0001
0000
0101
0000
0001
0000
1000
0000
0010
,
0010
0000
0100
0001
0100
0001
0000
0010
0000
1000
0010
0000
0010
0000
0100
0001
,
0000
0100
0010
0000
1000
0000
0010
0000
0010
0000
0100
0100
0000
0100
0000
0110
,
0000
0000
0001
0000
0001
1000
0010
0000
0010
0000
0100
0000
0001
0100
0000
0010
,
0000
1000
0010
0000
0010
0000
0100
0000
0001
0000
0001
0000
0001
0000
0000
0010
,
0000
0100
0010
0000
0010
0000
1000
0010
0010
0000
0100
0001
0000
0001
0100
0000
,
0010
0000
1000
0010
0010
0000
0100
0001
0000
0101
0000
0000
0100
0010
0000
0010
,
1000
0010
0010
0000
0100
0001
0001
0100
0000
0010
0000
0010
1000
0010
0000
0010
,
0100
0001
0000
0001
0000
0100
0010
0000
1010
0000
0010
0000
0010
0000
0100
0001
,
0000
0101
0000
0010
0000
1010
0000
0010
0000
0100
0001
0000
0101
0010
0000
1010
,
0000
0000
0100
0010
0000
0101
0001
0000
1000
0001
0001
0000
0001
0000
0001
0000
,
0100
0010
0100
0010
0000
0010
1000
0010
0000
1010
0000
1000
0000
0100
0010
0010
,
0100
0000
0010
0000
0010
0100
0000
1000
0010
0000
0010
0000
0000
0101
0000
0100
,
0010
0000
1010
0000
0010
0101
0000
0000
0110
0000
1001
0000
0110
0000
0101
0000
,
0110
0000
0000
0110
0000
0001
0000
0010
0100
0000
0110
0000
0110
0000
0101
0000
,
0000
1001
0000
0110
0000
0101
0100
0010
0000
1001
0000
0110
0000
0101
0000
0101
,
0000
0000
0010
0000
0010
0100
1000
0000
0010
0000
0010
0000
0101
0000
0110
0000
,
0101
0000
0010
0100
1001
0000
0110
0000
0101
0000
0110
0000
1001
0000
0000
0110
,
0101
0000
0001
0000
0001
0000
0010
0000
0000
0010
0010
0000
0010
0000
0100
0000
,
0110
0010
0000
1001
0000
0010
0100
0010
0100
0000
1001
0000
0110
0000
1001
0000
,
0110
0000
0001
0100
0000
1010
0000
0101
0000
0000
0110
0000
0101
0000
0101
0000
,
0000
1010
0001
0000
0110
0000
0000
1001
0000
0110
0001
0100
0000
1010
0001
0100
,
0001
0100
0000
0110
0000
0101
0000
0101
0100
0001
0100
0001
0000
1010
0000
1010
,
0000
1010
0000
0001
0000
0101
0000
1010
0001
1000
0000
0110
0000
0102
0000
0100
,
0013
0010
1000
0000
0010
0100
0010
0000
0000
0000
0010
0000
0010
0100
0000
0010
,
1000
0001
0010
0000
0100
0010
0010
0000
1000
0010
0100
0010
0000
0110
0000
0010
,
0000
1000
0000
0010
0000
0100
0000
0010
0100
0010
0100
0001
0000
0001
0000
0001
,
0000
0001
1000
0000
0010
0000
0110
0000
0010
0100
0010
0000
1000
0000
0010
0100
,
0010
0000
0000
1000
0000
0100
0000
0100
0000
0010
0000
0010
0000
0000
0100
0000
,
0000
1000
0010
0000
0010
0100
0010
0000
0010
1000
0100
0010
0000
0010
0100
0000
,
1000
0000
0020
0000
0000
0130
0000
0100
0000
1000
0100
0010
0010
0000
0010
0100
,
0000
0001
0001
0000
0010
0000
0010
0000
0010
1000
0000
0110
0000
0010
0010
0000
,
0100
1000
0100
0001
0000
0000
0001
0000
0001
0100
0000
0010
0000
0010
0010
0000
,
1000
0000
0010
0000
0010
0000
0010
0100
0000
1000
0100
0010
0000
0010
0010
0000
,
0100
1000
0000
0100
0001
0000
0002
0000
0000
0003
0001
0000
0100
0010
0010
0000
,
0100
0010
1000
0000
0010
0010
0000
0100
0010
0200
0000
0010
0300
0010
0000
0010
,
0100
0000
1001
0000
1000
0010
0000
0110
0000
0000
0100
0010
0000
0010
0000
1000
,
0010
0000
0010
0000
1000
1000
0000
0010
0010
0100
0000
0100
0000
0010
0000
1000
,
0000
0010
0100
0000
0000
0001
0000
0001
0000
0001
1000
0000
0010
0000
0010
0010
,
0000
0100
1000
0100
0000
0010
0010
0000
0010
0100
0000
1000
0100
0010
0010
0000
,
0010
0000
0010
0100
1000
0000
0110
0000
0010
0000
0010
0000
0010
0000
0100
0000
,
0100
0000
0010
0010
1000
0000
0010
0000
0110
0000
0010
1000
0000
0110
0000
0010
,
0010
0000
0100
0000
1000
0000
0010
0010
0000
0010
0000
0100
0000
0100
0000
0010
,
0000
0010
1000
0000
0010
0000
0010
0010
0000
0100
0000
1000
0100
0000
0010
0010
,
0000
0010
0100
1000
0000
0100
0001
0001
0000
0001
0000
0100
0000
0100
0010
0000
,
0010
0000
1000
0000
0010
0000
0010
0000
0100
0000
0110
0000
0010
1001
0000
0000
,
0110
0000
0101
0000
0000
0000
1010
0000
1001
0000
0110
0000
0001
1000
0110
0000
,
0000
1001
0000
0110
0000
1001
0000
0110
0000
1001
0000
0110
0000
0001
1000
0110
,
0000
0101
0000
0101
0000
0000
1010
1010
0000
0000
0000
0101
0000
0101
0000
1001
,
0000
0110
0000
1001
0000
0110
0000
1001
0000
0110
0000
1001
0000
0110
0000
1001
,
0000
0110
0101
0000
0000
0001
0100
0101
0000
0000
1010
0000
1001
0000
0110
0000
,
1001
0000
0110
0000
1001
0000
0010
0100
0001
0000
0100
0010
0000
1001
0000
0110
,
0000
1001
0000
1001
0000
0000
0110
0000
0101
0000
0101
0000
1001
0000
1000
0110
,
0000
0101
0000
1001
0000
0110
0000
0010
0000
0010
0000
1000
0100
0000
0010
0010
,
0000
0100
0001
0001
0000
1000
0010
0000
0010
0100
0000
0010
0010
0000
0100
0001
,
0001
0000
0001
1000
0010
0000
0010
0010
0000
0100
0100
0001
0000
0001
0001
0000
,
1000
0000
1010
0000
0010
0010
0010
0100
0000
0100
0101
0001
0000
0001
1001
0000
,
1000
0000
1000
0010
0010
0010
0000
0100
0001
0000
0001
0110
0000
0110
0000
1001
,
0000
0010
0100
0101
0000
0000
0110
0000
0101
1000
0010
0100
0000
1001
0000
0110
,
0000
0101
0000
0101
0000
0000
1010
0000
1010
0000
0101
0010
0000
1001
0000
0101
,
0000
0101
0000
0000
1010
0000
1001
0000
0110
0000
0101
0000
0110
0000
1001
0000
,
0110
0000
0001
1000
0001
0000
0000
0002
0000
0000
0000
0000
0000
0000
0000
0000
,
0000
0000
0000
0000
0000
0000
0003
0010
0010
0000
1000
0100
0010
0000
0010
0000
,
0100
1000
0000
0000
0010
0000
0100
0010
0000
0100
0010
0000
0100
0000
0010
0000
,
0010
1000
0000
0001
0001
0000
0100
0010
0000
0010
0000
1000
0010
0000
0010
0100
,
0001
0000
0101
0000
0001
1000
0000
0010
0010
0000
0100
0010
0000
0010
0100
0010
,
0100
0010
0000
1001
0000
0001
0000
1000
0010
0010
0100
0000
0101
0000
0110
0000
,
0101
0000
0010
0000
1010
0000
0010
0000
0101
0001
0100
0000
1010
0000
0101
0010
,
0100
0001
1000
0010
0100
0001
1000
0000
0110
0000
1001
0000
0110
0000
0101
0000
,
0101
0000
0000
0110
0000
1001
0000
0110
0000
0101
0001
0100
0001
0000
0101
0000
,
0100
0001
0010
1000
1010
0000
1001
0000
0110
0000
0101
0000
0101
0000
1000
0010
,
0000
1001
0000
0110
0000
0101
0000
0101
0000
0110
0000
0101
0000
0110
0000
0010
,
0000
1010
0000
1001
0000
1000
0001
0100
0000
0101
0001
0100
0001
0100
0010
1000
,
0010
1000
0010
0000
1001
0001
0000
0101
0000
0101
0000
0000
0000
0000
0010
0010
,
1000
0010
0000
0010
0100
0001
0000
0101
0001
0000
0100
0010
0000
1010
0000
1010
,
0000
0001
0000
0101
0000
0110
0000
0110
0000
1001
0000
1001
0000
0110
0000
0100
,
0011
0110
0001
0100
0001
0000
0001
0000
1001
0001
1000
0001
0010
0000
0010
0100
,
0010
0100
0010
0000
1001
0000
0001
0000
0101
0010
0010
1000
0000
0010
0000
0101
,
0000
0101
0000
0001
0001
0000
1000
0010
1000
0010
1000
0001
0100
0010
0100
0000
,
1001
0000
0110
0000
1001
0000
0110
0000
0101
0000
0000
0101
0000
0101
0000
1001
,
0000
1010
0000
1001
0000
0000
0110
0001
1000
1000
0110
0000
0101
0000
1010
0000
,
0101
0000
1001
0000
0101
0000
0000
0101
0000
1001
0000
0000
1010
1010
0000
0101
,
0000
0000
0110
0000
1001
0000
0110
0000
1001
0000
0010
0100
1001
0000
0110
0000
,
0000
1001
0010
0100
0101
0000
0000
0001
0100
0001
0100
0001
0000
0010
0000
1010
,
0010
1000
0000
1001
0000
0110
0000
1001
0000
0010
0100
0101
0000
0001
1000
0001
,
0000
0000
1010
0000
0110
0000
0101
0000
0010
1000
1001
0000
0000
0000
0110
0000
,
0101
0101
0000
0000
0000
0001
0000
0000
0000
0000
0000
0000
0000
0000
0000
0000
;
